最新高清电影下载_720p高清_1080p高清_手机电影下载

 找回密码
 立即注册
查看: 4264|回复: 10

血战钢锯岭[中文字幕 720p高清迅雷BT种子下载]720p.x264.AC3-WEBHD 1.92GiB

[复制链接]
  • TA的每日心情
    开心
    2016-6-25 12:16
  • 签到天数: 18 天

    [LV.4]偶尔看看III

    6万

    主题

    6万

    帖子

    20万

    积分

    管理员

    Rank: 9Rank: 9Rank: 9

    积分
    201820
    发表于 2017-1-11 09:56:16 | 显示全部楼层 |阅读模式
    血战钢锯岭[中文字幕 720p高清迅雷BT种子下载]720p.x264.AC3-WEBHD 1.92GiB



    【影片原名】Hacksaw Ridge
    【中文译名】血战钢锯岭/钢锯岭/钢铁英雄(台)
    【出品公司】Cross Creek Pictures
    【出品年代】2016 年
    【上映日期】2016年12月8日 国上映 - 2D
    【影片级别】Australia:MA15+ | Canada:14A (British Columbia) | Canada:16+ (Quebec) (original rating) | Canada:13+ (Quebec) (re-rating on appeal) | Hong Kong:IIB
    【官方网站】http://www.webhd.co/thread-2
    【IMDB链接】http://www.imdb.com/title/tt2119532/
    【IMDB评分】8.5/10 (36,496 votes) Top 250: #92
    【国  家】澳大利亚/美国
    【类  别】剧情/历史/战争
    【导  演】梅尔·吉布森 Mel Gibson
    【主  演】安德鲁·加菲尔德 Andrew Garfield ... Desmond Doss
    Richard Pyros ... Teach
    Jacob Warner ... James Pinnick
    Milo Gibson ... Lucky Ford
    Darcy Bryce ... Young webhd.co  Desmond
    Roman Guerriero ... Young 'Hal' Doss
    James Lugton ... Hiker
    Kasia Stelmach ... Hiker's Friend
    雨果·维文 Hugo Weaving  webhd.co... Tom Doss
    瑞切尔·格里菲斯 Rachel Griffiths ... Bertha Doss
    Jarin Towney ... Teenage Boy
    Tim McGarry ... Local Man
    Tyler Coppin ... Lynchburg Doctor
    Teresa Palmer ... Dorothy Schutte
    理查德·劳斯伯格 webhd.co Richard Pratt ... Flirting Hospital Soldier



    【内容简介】

    1945年,第二次世界大战接近尾声,作为邪恶轴心重要成员的日本,其嚣张态势已成强弩之末。是年,决定战局走向的冲绳岛战役拉开序幕,成千上万斗志昂扬的美国大兵被派往冲webhd.co绳,等待他们的则是敌军重兵防守、凶险异常的钢锯岭。在这群人中间,却有一个不愿拿起武器的军医webhd.co。他名叫戴斯蒙德·道斯(安德鲁·加菲尔德 Andrew Garfield 饰),来自美国的弗吉尼亚。太平洋爆发之际,瘦弱的戴斯蒙德志愿成为救死扶伤的军医而应征入伍。可因童年和家庭的原因,他始终不愿拿起枪支操练,为此宁愿背上拒服兵役的罪名被送webhd.co上军事法庭。几经周折,戴斯蒙德最终和战友来到了钢锯岭。枪林弹雨,转瞬之间无数人应声倒地。在信仰和信念的支持下,戴斯蒙德仅凭一己之力拯救了数十条濒死的生命……
    本片根据真人真事改编。

    关于《血战钢锯岭》你应该知道的7件事

        1《血战钢锯岭》是梅尔·吉布森执导的第五部作品,距离上部《启示录》(2006)近十年。
        2影片故事背景发生在第二次世界大战太平洋战争中伤亡人数最多的——冲绳岛战役,改编自上等兵军医戴斯蒙德·道斯的真实经历。
        3《血战钢锯岭》被梅尔·吉布森戏称为“百分百澳洲血统webhd.co的电影”。虽然《钢锯岭》讲述了一个发生在弗吉尼亚州林奇堡和冲绳岛的故事,但是影片全部在澳洲取景,工作人员和大部分的演员都是澳洲人。
        4为了真实再现那片惨绝人寰、尸webhd.co横遍野的战场,梅尔·吉布森选中澳大利亚悉尼西南部郊区布伦格利的一个农场,并不惜花重金将其炸毁,伪装成钢锯岭的顶端,成功拍出了几万平米的浴血战地场景。
        5为了以“纯实拍”完成拍摄,webhd.co梅导要求团队将电脑特效的使用降到最低。美术团队在不允许使用3D技术、设计工具、三维动画软件的情况下,用黏土雕塑三维模型,再由置景团队webhd.co等比还原战场沟壑。
        6钢锯岭戏份均采用实景拍摄,尤其是“火烧webhd.co鬼子”的戏份,也是采用特殊火直接“喷烧”真人。
        7特效团队做出一种特殊且安全的“炸弹箱”,让镜头与演员都可以无限接近炸点,以营造逼真的拍摄效果。
    郑重声明:
    本站提供的所有影视作品均是在网上搜集,任何涉及商业盈利目的均不得使用,否则产生的一切后果将由您自己承担!webhd.co本站将不对本站的任何内容负任何法律责任!该下载内容仅做宽带测试使用,请在下载后24小时内删除。请购买正版!


    http://extraimage.net/image/wxUG

    http://www.imdb.com/title/tt2119532/

    [quote]Format                      : MKV
    File size                   : 1.93 GiB
    Duration                    : 2 h 2 min
    Overall bit rate mode       : Variable
    Overall bit rate            : 2 252 kb/s
    Video
    Format                      : AVC
    Format/Info                 : Advanced Video Codec
    Format profile              : [email protected] Format settings, CABAC      : Yes
    Format settings, ReFrames   : 4 frames
    Codec ID                    : V_MPEG4/ISO/AVC
    Duration                    : 2 h 2 min
    Bit rate mode               : Variable
    Bit rate                    : 2 000 kb/s
    Maximum bit rate            : 62.5 Mb/s
    Width                       : 720 pixels
    Height                      : 320 pixels
    Display aspect ratio        : 2.25:1
    Frame rate mode             : Constant
    Frame rate                  : 30.000 FPS
    Color space                 : YUV
    Chroma subsampling          : 4:2:0
    Bit depth                   : 8 bits
    Scan type                   : Progressive
    Bits/(Pixel*Frame)          : 0.289
    Stream size                 : 1.67 GiB
    Audio
    Format                      : AC-3
    Format/Info                 : Audio Coding 3
    Mode extension              : CM (complete main)
    Format settings, Endianness : Big
    Codec ID                    : A_AC3
    Duration                    : 2 h 2 min
    Bit rate mode               : Constant
    Bit rate                    : 256 kb/s
    Channel(s)                  : 2 channels
    Channel positions           : Front: L R
    Sampling rate               : 48.0 kHz
    Frame rate                  : 31.250 FPS (1536 spf)
    Compression mode            : Lossy
    Stream size                 : 225 MiB (11%)
    Default                     : Yes
    Forced                      : No

    迅雷BT种子下载:

    百度盘:
    链接: http://pan.baidu.com/s/1hst7fCC 密码: 4idw





    回复

    使用道具 举报

  • TA的每日心情

    2016-8-19 12:33
  • 签到天数: 12 天

    [LV.3]偶尔看看II

    1

    主题

    131

    帖子

    535

    积分

    高级会员

    Rank: 4

    积分
    535
    发表于 2017-1-11 11:50:10 | 显示全部楼层
    看不起了!可不可以重新发一次
    回复 支持 反对

    使用道具 举报

  • TA的每日心情
    郁闷
    2016-12-1 08:50
  • 签到天数: 32 天

    [LV.5]常住居民I

    1

    主题

    68

    帖子

    788

    积分

    高级会员

    Rank: 4

    积分
    788
    发表于 2017-1-11 14:22:34 | 显示全部楼层
    迅雷链接 ?  没看到啊  
    回复 支持 反对

    使用道具 举报

  • TA的每日心情
    开心
    2017-1-12 15:46
  • 签到天数: 25 天

    [LV.4]偶尔看看III

    0

    主题

    37

    帖子

    481

    积分

    中级会员

    Rank: 3Rank: 3

    积分
    481
    发表于 2017-1-11 14:37:03 | 显示全部楼层
    枪版的。。。辣眼睛辣耳朵  还是等高清吧
    回复 支持 反对

    使用道具 举报

  • TA的每日心情
    开心
    3 小时前
  • 签到天数: 15 天

    [LV.4]偶尔看看III

    0

    主题

    80

    帖子

    698

    积分

    高级会员

    Rank: 4

    积分
    698
    发表于 2017-1-11 19:55:32 | 显示全部楼层
    被删除了,再发一遍吧
    回复 支持 反对

    使用道具 举报

    该用户从未签到

    1

    主题

    44

    帖子

    140

    积分

    注册会员

    Rank: 2

    积分
    140
    发表于 2017-1-11 20:36:16 | 显示全部楼层
    你空间看见了就
    回复 支持 反对

    使用道具 举报

  • TA的每日心情

    2017-2-6 12:09
  • 签到天数: 50 天

    [LV.5]常住居民I

    1

    主题

    116

    帖子

    767

    积分

    高级会员

    Rank: 4

    积分
    767
    发表于 2017-1-12 09:40:44 | 显示全部楼层
    晚来了一步,啥也没有光介绍了呀
    回复 支持 反对

    使用道具 举报

  • TA的每日心情
    无聊
    前天 00:26
  • 签到天数: 248 天

    [LV.8]以坛为家I

    0

    主题

    297

    帖子

    3435

    积分

    论坛元老

    Rank: 8Rank: 8

    积分
    3435
    发表于 2017-1-12 11:12:54 | 显示全部楼层
    百度盘没有啦.......
    回复 支持 反对

    使用道具 举报

  • TA的每日心情
    擦汗
    2016-5-24 18:56
  • 签到天数: 3 天

    [LV.2]偶尔看看I

    0

    主题

    27

    帖子

    164

    积分

    注册会员

    Rank: 2

    积分
    164
    发表于 2017-1-12 19:31:01 | 显示全部楼层
    仍然是枪版,不清晰。。。
    回复 支持 反对

    使用道具 举报

  • TA的每日心情
    开心
    11 小时前
  • 签到天数: 245 天

    [LV.8]以坛为家I

    0

    主题

    399

    帖子

    3142

    积分

    论坛元老

    Rank: 8Rank: 8

    积分
    3142
    发表于 2017-1-13 01:34:54 | 显示全部楼层
    链接能重发不...
    回复 支持 反对

    使用道具 举报

    您需要登录后才可以回帖 登录 | 立即注册

    本版积分规则

    Archiver|手机版|RARBT ( 黔ICP备15014552号-1
    声明:本站免费电影只提供测试宽带,不存在任何商业盈利性目的!本站为非营利性质个人网站。 所有免费影视均来自互联网络,只做宽带测试之用。如有侵权,与本网站无关。请联系: 我们会第一时间删除!我们强烈建议所有影视爱好者购买正版音像制品!

    GMT+8, 2017-2-23 11:32 , Processed in 0.125000 second(s), 23 queries .

    Powered by D

    © 2001-2013

    快速回复 返回顶部 返回列表